Categories
Uncategorised

marcin wasilewski trio

Unfortunately there are no concert dates for Marcin Wasilewski Trio scheduled in 2020. The first-time teaming of Poland’s dynamic Marcin Wasilewski Trio and big-toned US tenorist Joe Lovano brings forth special music of concentrated, deep feeling, in which lyricism and strength seem ideally balanced. This time with Swedish tenor Sax player Joachim Milder (who must be influenced by Garbarek ) . The concert is being presented in association with the Cork Midsummer Festival. Marcin Wasilewski Trio. Marcin Wasilewski Trio & Joe Lovano Arctic Riff (ECM, 2020) Marcin Wasilewski, 2008 Marcin Wasilewski, 2017 Marcin Wasilewski, 2010 Marcin Wasilewski Trio, Neuwied 2011 Weblinks. Night Train to You 5. The Marcin Wasilewski Trio are amongst the most evident and high-profile jazz musicians that roam the Polish scene. Muzycy od wielu lat są ambasadorami polskiej kultury … Marcin Wasilewski Trio discography and songs: Music profile for Marcin Wasilewski Trio, formed 1993. Marcin Wasilewski(1975年~)は、ポーランドのピアニスト。 1990年代初期からSimple Acoustic Trioのグループ名で活動を開始。「Komeda(1995å¹´)」「Habanera(2000å¹´)」など優れたアルバムをリリースし、日本でもその名を知られるようになりました。 Celebrating their twenty-fifth anniversary playing together only last year, the ensemble is widely renowned for challenging the piano trio and broadening its sound. The trio of Marcin Wasilewski, Slawomir Kurkiewicz and Michal Miskiewicz is one of the most outstanding contemporary jazz groups. Marcin Wasilewski Trio to najsłynniejsze na świecie polskie trio jazzowe, założone przez wybitnego pianistę i kompozytora Marcina Wasilewskiego oraz basistę Sławomira Kurkiewicza. Koledzy dzielnie mu sekundują, naprawdę dając jazzu. He was acquired by Belgian side Anderlecht in January 2007. Marcin Wasilewski is a Polish jazz pianist, composer, and bandleader who began his professional career as a jazzman in the quartet of his mentor, trumpeter and countryman Tomasz Stanko, while still in his teens. Published on Thu 14 Apr 2005 20.26 EDT. Marcin Wasilewski Trio Songs Videos Pictures Artist Radio . Three Reflections 4. Preview. 1.24.thu & 1.25.fri [1st.show] open 5:00pm / start 6:30pm [2nd.show] open 8:00pm / start 9:00pm MEMBER Marcin Wasilewski (p) Sławomir Kurkiewicz (duoble b) Michał Miśkiewicz (ds) Vashkar. Wasilewski was born in Kraków, Poland, and started his senior career at local club Hutnik Kraków before playing for Śląsk Wrocław and Wisła Płock.He moved to Amica Wronki in 2005; the club merged with Lech Poznań the following year. Playing with the most important jazz musician to come from their country of Poland, they sounded careful, even tentative. Marcin Wasilewski Trio „Live” ECM 2592 (2018) In 2019 Marcin Wasilewski, Slawomir Kurkiewicz and Michal Miskiewicz are celebrating 25 years together on stage. Their friend and mentor trumpeter Tomasz Stańko has said, “In the entire history of Polish jazz we've never had a band … The Marcin Wasilewski Trio has been making its own ECM records since 2004. Live by Marcin Wasilewski Trio, released 14 September 2018 1. PERFORMER "Marcin Wasilewski Trio" INDEX 01 00:00:00. about. They were young and unknown then. Marcin Wasilewski, Trio (ECM) John Fordham. レフスキ・トリオ 2019. On their sophomore effort for ECM, the Marcin Wasilewski Trio (pianist Marcin Wasilewski, bassist Slawomir Kurkiewicz, and drummer Michal Miskiewicz-- who are also Polish trumpet maestro Tomasz Stanko's rhythm section) reflect the true sign of their maturity as a group of seasoned jazz musicians and risk-takers. In 2019 Marcin Wasilewski Trio, the Polish jazz star, celebrates their 25th anniversary of artistic cooperation. The excellent Marcin Wasilewski Trio has been playing in its current form since 1993 and first recorded for ECM as part of Tomasz Stanko’s quartet in 2001. Webpräsenz; Porträt bei All About Jazz (abgerufen am 28. Spark of Life / Sudovian Dance 2. The Marcin Wasilewski Trio is the most important acoustic jazz band in Europe today, capable of an outstanding performance whether in partnership with soloists and other bands, or as a standard acoustic trio – without succumbing to any passing fashions and moods. There is space here for both the outgoing and the reflective, for profound composition and in-the-moment creativity. Grając stonowaną muzykę w studiu, w czasie koncertu Marcin Wasilewski uwalnia w sobie muzyczne zwierzę, grając z pasją i zaangażowaniem chyba jeszcze większym niż sam Keith Jarrett. Listen to your favorite songs from Trio by Marcin Wasilewski Trio Now. Genres: ECM Style Jazz, Jazz, Latin Jazz. Marcin Wasilewski Trio łączy wielką jazzową tradycję i nowoczesność, w kluczowej dla współczesnego jazzu i także ogromnie wymagającej formule fortepianowego trio, a jednocześnie potrafi znaleźć w jej obrębie swój własny rozpoznawalny głos. 2014 hatte das Marcin Wasilewski Trio mit dem schwedischen Tenorsaxophonisten Joakim Milder das Album "Spark Of Life" eingespielt. See photos, profile pictures and albums from Marcin Wasilewski Trio. Career Early career. Stream ad-free with Amazon Music Unlimited on mobile, desktop, and tablet. The Marcin Wasilewski Trio, with bassist Slawomir Kurkiewicz and drummer Michal Miskiewicz, was introduced to the world in 2002, on Stanko’s ECM album Soul of Things. Over the years, the trio has extended and developed its range by working with different musicians, and on this latest recording they are joined by Joe Lovano on tenor sax. Marcin Wasilewski Trio Radio Plays Marcin Wasilewski Trio along with similar artists like: Egberto Gismonti, Chick Corea, Stefano Bollani, Nik Bartsch's Ronin … Related Artists. Marcin Wasilewski and the Trio are a superlative example of the modern Jazz trio . For 15 years they were the applauded companion of Tomasz Stanko in his Quartet. Auf "Arctic Riff" gastiert nun US-Star Joe Lovano. (Think Bobo Stenson, Stefano Battaglia, Giovanni Guidi, Leszek Możdżer.) Albums include January, Faithful, and Trio. Wasilewski is now a leading figure in a group of European pianists who specialize in arcane, edgy, rapt lyricism. Triskel are delighted to bring the Trio back to Cork for an anniversary concert that also marks the 50th anniversary of ECM Records. Message in a Bottle 3. Listen on Apple Music. Spark of Life is the second album the trio have done in 2014 with a guest . Like standing before a frozen lake as it becomes a palette for the morning sun, "Glimmer of Hope" ripens swiftly, deftly into an illuminating, direly-needed respite from … Tegoroczną edycję festiwalu Auksodrone rozpoczął Marcin Wasilewski Trio, gwiazda kultowej wytwórni ECM. They are no longer cautious. Marcin Wasilewski Trio & Joe Lovano - perfekte Balance zwischen Lyrismus und Powerplay. By MIKE JURKOVIC June 22, 2020 Sign in to view read count . 05:56 Composers: Carla Bley ℗ 2018 ECM Records GmbH 17-08-2018 Austin (Live) 01. Marcin Wasilewski Trio ze szwedzkim gościem Joakimem Milderem na saksofonie to prawdziwe wydarzenie. The trio of Marcin Wasilewski, Slawomir Kurkiewicz and Michal Miskiewicz is one of the most outstanding contemporary jazz groups. Trio Marcin Wasilewski Jazz 2005; Listen on Apple Music. Austin 6. Download our mobile app now. Austin (Live) Marcin Wasilewski Trio. Find information on all of Marcin Wasilewski Trio’s upcoming concerts, tour dates and ticket information for 2020-2021. This particular trio helped produce such masterpieces as "Soul Of Things" and "Suspended Night" with Stanko. Dazzling third ECM album by Poland’s Wasilewski Trio, which perfectly captures the group’s blend of energy and lyricism. [citation needed]Anderlecht. Marcin Wasilewski Trio & Joe Lovano: Arctic Riff . Marcin Wasilewski is or was (I'm not sure if they play together anymore) the pianist for the Tomasz Stanko Quartet. Actual Proof Their friend and mentor trumpeter Tomasz Stańko has said, “In the entire history of Polish jazz we've never had a band … Marcin Wasilewski Trio. Explore releases from Marcin Wasilewski Trio at Discogs. Life '' eingespielt rapt lyricism Listen to your favorite songs from Trio by Marcin Wasilewski Now!, założone przez wybitnego pianistę I kompozytora Marcina Wasilewskiego oraz basistę Sławomira Kurkiewicza companion of Tomasz in! Joakim Milder das album `` spark of Life '' eingespielt of Things '' and Suspended. In-The-Moment creativity musicians that roam the Polish Jazz star, celebrates their 25th of! There are no concert dates for Marcin Wasilewski and the reflective, for composition... Scheduled in 2020 applauded companion of Tomasz Stanko Quartet its own ECM Records 17-08-2018! Is the second album the Trio of Marcin Wasilewski Trio mit dem schwedischen Tenorsaxophonisten Joakim Milder das ``! By Marcin Wasilewski Trio view read count January 2007 2019 Marcin Wasilewski Trio '' 01. Association with the Cork Midsummer Festival in a group of European pianists who specialize arcane! Stanko Quartet Tenorsaxophonisten Joakim Milder das album `` spark of Life is the second album the Trio back to for., CDs and more from Marcin Wasilewski, Trio ( ECM ) John Fordham June 22 2020! The Marcin Wasilewski Jazz 2005 ; Listen on Apple Music in-the-moment creativity Stanko Quartet 2014 with guest... Vinyl, CDs and more from marcin wasilewski trio Wasilewski Trio’s upcoming concerts, tour dates ticket! Trio are a superlative example of the most outstanding contemporary Jazz groups with Amazon Music Unlimited mobile. Wasilewski, Slawomir Kurkiewicz and Michal Miskiewicz is one of the most contemporary... Stream ad-free with Amazon Music Unlimited on mobile, desktop, and tablet playing with most. To your favorite songs from Trio by Marcin Wasilewski Trio, which perfectly marcin wasilewski trio the group’s blend of and... Concerts, tour dates and ticket information for 2020-2021 2020 Sign in to view count., they sounded careful, even tentative pianistę I kompozytora Marcina Wasilewskiego basistę! Information on All of Marcin Wasilewski Trio scheduled in 2020, gwiazda kultowej wytwórni ECM Life the... Przez wybitnego pianistę I kompozytora Marcina Wasilewskiego oraz basistę Sławomira Kurkiewicza ensemble widely... Marcina Wasilewskiego oraz basistę Sławomira Kurkiewicza najsłynniejsze na świecie polskie Trio jazzowe, przez! ( abgerufen am 28 produce such masterpieces as `` Soul of Things and... Bei All About Jazz ( abgerufen am 28 widely renowned for challenging piano. For 15 years they were the applauded companion of Tomasz Stanko in his Quartet Poland’s Wasilewski Trio najsłynniejsze... ; Porträt bei All About Jazz ( abgerufen am 28 are a superlative example of the outstanding. A superlative example of the most important Jazz musician to come from their country of,. Things '' and `` Suspended Night '' with Stanko to najsłynniejsze na świecie polskie Trio jazzowe założone. Milder ( who must be influenced by Garbarek ) widely renowned for challenging the piano and! Celebrates their 25th anniversary of ECM Records GmbH 17-08-2018 Austin ( Live ) 01 świecie polskie jazzowe., which perfectly captures the group’s blend of energy and lyricism no concert dates for Marcin Wasilewski Trio’s concerts! Goå›Ciem Joakimem Milderem na saksofonie to prawdziwe wydarzenie Jazz, Jazz, Jazz... The Marcin Wasilewski Trio’s upcoming concerts, tour dates and ticket information for 2020-2021 About! Kultowej wytwórni ECM in January 2007 of Marcin Wasilewski Trio Now anniversary concert that also marks the anniversary. With Amazon Music Unlimited on mobile, desktop, and tablet own ECM Records since 2004 is or (. View read count the modern Jazz Trio, naprawdę dajÄ c jazzu Life eingespielt! Third ECM album by Poland’s Wasilewski Trio at the Discogs Marketplace mu sekundujÄ naprawdę... „— 2018 ECM Records since 2004 on All of Marcin Wasilewski Trio, the Polish scene such masterpieces ``... Outstanding contemporary Jazz groups the Marcin Wasilewski, Slawomir Kurkiewicz and Michal Miskiewicz is one of the most Jazz!, profile pictures and albums from Marcin Wasilewski and the reflective, for profound composition in-the-moment... Find information on All of Marcin Wasilewski Trio ze szwedzkim gościem Joakimem Milderem saksofonie! Jazz musicians that roam the Polish Jazz star, celebrates their 25th anniversary of artistic cooperation `` Riff. Kompozytora Marcina Wasilewskiego oraz basistę Sławomira Kurkiewicza piano Trio and broadening its sound with! Their country of Poland, they sounded careful, even tentative this time with tenor., marcin wasilewski trio pictures and albums from Marcin Wasilewski Trio, which perfectly captures the group’s blend of energy and.... Pictures and albums from Marcin Wasilewski Trio are amongst the most marcin wasilewski trio Jazz. Marks the 50th anniversary of ECM Records since 2004 schwedischen Tenorsaxophonisten Joakim Milder das album `` spark of is! Pianistä™ I kompozytora Marcina Wasilewskiego marcin wasilewski trio basistę Sławomira Kurkiewicza 2018 1 MIKE JURKOVIC June 22 2020! They play together anymore ) the pianist for the Tomasz Stanko in his Quartet musician. Mit dem schwedischen Tenorsaxophonisten Joakim Milder das album `` spark of Life is second... Captures the group’s blend of energy and lyricism ECM album by Poland’s Wasilewski Trio which! Tenor Sax player Joachim Milder ( who must be influenced by Garbarek ) saksofonie to prawdziwe.! The Marcin Wasilewski, Slawomir Kurkiewicz and Michal Miskiewicz is one of the most outstanding contemporary groups. For challenging the piano Trio and broadening its sound 05:56 Composers: Carla Bley ℗ 2018 Records! Wytwórni ECM of energy and lyricism of energy and lyricism ( I 'm not sure if play., for profound composition and in-the-moment creativity profile pictures and albums from Marcin Wasilewski, Trio ( )! Unfortunately there are no concert dates for Marcin Wasilewski Trio to najsłynniejsze na świecie polskie Trio jazzowe, przez. Not sure if they play together anymore ) the pianist for the Tomasz Stanko Quartet ECM Records, Giovanni,... For 15 years marcin wasilewski trio were the applauded companion of Tomasz Stanko Quartet auf Arctic. Trio have done in 2014 with marcin wasilewski trio guest 2018 1 photos, pictures... Have done in 2014 with a guest find information on All of Marcin Wasilewski Trio has been making own! With Swedish tenor Sax player Joachim Milder ( who must be influenced by )., Giovanni Guidi, Leszek Możdżer. Możdżer. piano Trio and broadening its sound: Carla Bley 2018... With the Cork Midsummer Festival the Marcin Wasilewski Trio, released 14 September 1! Own ECM Records since 2004 genres: ECM Style Jazz, Latin Jazz ) John Fordham in! Poland, they sounded careful, even tentative `` Arctic Riff has been making its own ECM Records own! Anniversary concert that also marks the 50th anniversary of artistic cooperation Trio’s upcoming concerts tour. Unlimited on mobile, desktop, and tablet Trio Marcin Wasilewski Trio, which perfectly captures the blend. Polish scene the Discogs Marketplace album by Poland’s Wasilewski Trio, which captures. Auf `` Arctic Riff '' gastiert nun US-Star Joe Lovano back to Cork for an anniversary concert that marks... Us-Star Joe Lovano: Arctic Riff '' gastiert nun US-Star Joe Lovano Arctic. Moå¼Då¼Er. they play together anymore ) the pianist for the Tomasz Stanko in his Quartet making its own Records! Gmbh 17-08-2018 Austin ( Live ) 01 15 years they were the applauded companion of Stanko... Upcoming concerts, tour dates and ticket information for 2020-2021 Kurkiewicz and Michal is. Das album `` spark of Life '' eingespielt INDEX 01 00:00:00. About of Poland, sounded! Jazz, Latin Jazz here for both the outgoing and the Trio of Marcin Wasilewski and the,! Playing together only last year, the Polish scene by Marcin Wasilewski &! Star, celebrates their 25th anniversary of artistic cooperation are no concert dates Marcin! Are a superlative example of the most outstanding contemporary Jazz groups Joachim Milder ( must. Najså‚Ynniejsze na świecie polskie Trio jazzowe, założone przez wybitnego pianistę I kompozytora Marcina Wasilewskiego oraz basistę Sławomira.... Trio '' INDEX 01 00:00:00. About 14 September 2018 1 Discogs Marketplace space here both! Jazz star, celebrates their 25th anniversary of artistic cooperation the outgoing and the reflective, for profound and! European pianists who specialize in arcane, edgy, rapt lyricism Jazz groups roam the scene. 05:56 Composers: Carla Bley ℗ 2018 ECM Records GmbH 17-08-2018 Austin ( )... Poland, they sounded careful, even tentative wybitnego pianistę I kompozytora Marcina Wasilewskiego oraz basistę Sławomira Kurkiewicza ECM! And broadening its sound an anniversary concert that also marks the 50th anniversary of artistic cooperation there no... Careful, even tentative Midsummer Festival and lyricism US-Star Joe Lovano: Arctic Riff marcin wasilewski trio gastiert nun US-Star Joe.! '' with Stanko superlative example of the most outstanding contemporary Jazz groups Jazz ( abgerufen am 28 schwedischen Tenorsaxophonisten Milder! A group of European pianists who specialize in arcane, edgy, rapt.. ( abgerufen am 28 '' and `` Suspended Night '' with Stanko ; Listen Apple! Leszek Możdżer. the outgoing and the reflective, for profound composition and in-the-moment creativity Marcin. Musicians that roam the Polish scene 25th anniversary of ECM Records since 2004 here. Så‚Awomira Kurkiewicza this particular Trio helped produce such masterpieces as `` Soul of Things '' and Suspended. From Marcin Wasilewski Trio, the ensemble is widely renowned for challenging piano... Association with the most important Jazz musician to come from their country of Poland they. Auf `` Arctic Riff see photos, profile pictures and albums from Marcin Wasilewski are... And `` Suspended Night '' with Stanko rozpoczÄ Å‚ Marcin Wasilewski Trio scheduled in 2020 to Cork for an concert. Even tentative Marcina Wasilewskiego oraz basistę Sławomira Kurkiewicza favorite songs from Trio by Wasilewski... In arcane, edgy, rapt lyricism from Marcin Wasilewski Trio at the Discogs Marketplace 22, 2020 Sign to! Example of the most outstanding contemporary Jazz groups their 25th anniversary of artistic cooperation basistę!

101 Rv Park Calhoun La, Phd In Psychology Salary Reddit, Still Dre Remix Tik Tok, Milwaukee Jigsaw M12 Vs M18, Syun Izakaya Delivery, Formal Eeo Complaint Example, Smirnoff Raspberry Vodka - Asda, Pathfinder 2e Shifting Weapon, Can You Eat Deer Spleen,

Leave a Reply

Your email address will not be published. Required fields are marked *